Rei Kato - Sexy Older Lady With Beautiful Blonde Hair And Super Sensitive Pierced Nipples Who Loves Hardcore Sex And Can t Stop Cumming [AACZD-036] (Sanwa Shuppan) [cen] [2022 г., Cross Dresser, Shemale, Anal, Blowjob, HDRip] [1080p]

Studio:



Sexy Older Lady With Beautiful Blonde Hair And Super Sensitive Pierced Nipples Who Loves Hardcore Sex And Can t Stop Cumming
金髮美女,但性格粗壯的妹妹是超級敏感的女性化受虐狂,在穿孔中無盡的暨
Cтрана: Япония Жанр: Cross Dresser, Shemale, Anal, Blowjob Продолжительность: 02:04:05
Цензура: Есть во всех файлах Язык: Японский Студийный код фильма: ACZD-036 Студия: Sanwa Shuppan Европейские девушки в фильме: Нет В ролях: Rei Kato Тип HD Видео: 1080p Качество видео: HDRip Формат видео: MP4 Видео: AVC, 1920 pixels x 1080 pixels, 29.960 FPS, 6000 kb/s
Аудио
: AAC, 48.0 kHz stereo, 192 kb/s
"Screenlist and screenshots"


"MediaInfo"
General
Complete name : D:ACZD-036.mp4
Format : MPEG-4
Format profile : Base Media
Codec ID : isom (isom/iso2/avc1/mp41)
File size : 5.38 GiB
Duration : 2 h 4 min
Overall bit rate : 6 201 kb/s
Writing application : ShanaEncoder
IsTruncated : Yes

Video
ID : 1
Format : AVC
Format/Info : Advanced Video Codec
Format profile : Baseline@L4
Format settings : 1 Ref Frames
Format settings, CABAC : No
Format settings, Reference : 1 frame
Codec ID : avc1
Codec ID/Info : Advanced Video Coding
Duration : 2 h 4 min
Bit rate : 6 001 kb/s
Width : 1 920 pixels
Height : 1 080 pixels
Display aspect ratio : 16:9
Frame rate mode : Constant
Frame rate : 29.970 (30000/1001) FPS
Color space : YUV
Chroma subsampling : 4:2:0
Bit depth : 8 bits
Scan type : Progressive
Bits/(Pixel*Frame) : 0.097
Stream size : 5.20 GiB (97%)
Writing library : x264 core 164 r3085 0bb85e8
Encoding settings : cabac=0 / ref=1 / deblock=1:0:0 / analyse=0x1:0x111 / me=hex / subme=2 / psy=1 / psy_rd=1.00:0.00 / mixed_ref=0 / me_range=16 / chroma_me=1 / trellis=0 / 8x8dct=0 / cqm=0 / deadzone=21,11 / fast_pskip=1 / chroma_qp_offset=0 / threads=16 / lookahead_threads=5 / sliced_threads=0 / nr=0 / decimate=1 / interlaced=0 / bluray_compat=0 / constrained_intra=0 / bframes=0 / weightp=0 / keyint=250 / keyint_min=25 / scenecut=40 / intra_refresh=0 / rc_lookahead=10 / rc=abr / mbtree=1 / bitrate=6000 / ratetol=1.0 / qcomp=0.60 / qpmin=0 / qpmax=69 / qpstep=4 / ip_ratio=1.40 / aq=1:1.00
Codec configuration box : avcC

Audio
ID : 2
Format : AAC LC
Format/Info : Advanced Audio Codec Low Complexity
Codec ID : mp4a-40-2
Duration : 2 h 4 min
Source duration : 2 h 4 min
Source_Duration_LastFrame : -13 ms
Bit rate mode : Constant
Bit rate : 192 kb/s
Channel(s) : 2 channels
Channel layout : L R
Sampling rate : 44.1 kHz
Frame rate : 43.066 FPS (1024 SPF)
Compression mode : Lossy
Stream size : 170 MiB (3%)
Source stream size : 170 MiB (3%)
Default : Yes
Alternate group : 1
.
📅 19-05-2022, 10:08 ☺ SEED / PEER - (25/12) ⚖ 5.38 GB 👁
DOWNLOAD TORRENT ( 5.38 GB ) ⟫ ⟫ ⟫
.