Yayoi Mizuki - Married Personal Trainer Reverse NTR Mizuki Yayoi Who Seduces Me With A Nice Ass And A Devilish Smile [JUQ-029] (Madonna) [cen] [2022 г., Solowork, Big Tits, Married Woman, Mature Woman, HDRip] [1080p]

Studio:



Married Personal Trainer Reverse NTR Mizuki Yayoi Who Seduces Me With A Nice Ass And A Devilish Smile
美尻と魔性の微笑みで僕を誘惑する人妻パーソナルトレーナー 逆NTR 弥生みづき
Cтрана: Япония Жанр: Solowork, Big Tits, Married Woman, Mature Woman Продолжительность: 02:03:35
Цензура: Есть во всех файлах Язык: Японский Студийный код фильма: JUQ-029 Студия: Madonna Европейские девушки в фильме: Нет В ролях: Yayoi Mizuki Тип HD Видео: 1080p Качество видео: HDRip Формат видео: MP4 Видео: AVC, 1920 pixels x 1080 pixels, 29.960 FPS, 5979 kb/s
Аудио
: AAC, 48.0 kHz stereo, 128 kb/s
"Screenlist and screenshots"



"MediaInfo"
General
Complete name : D:JUQ-029.mp4
Format : MPEG-4
Format profile : Base Media
Codec ID : isom (isom/iso2/avc1/mp41)
File size : 5.28 GiB
Duration : 2 h 3 min
Overall bit rate : 6 116 kb/s
Writing application : Lavf59.25.100

Video
ID : 1
Format : AVC
Format/Info : Advanced Video Codec
Format profile : Baseline@L4
Format settings : 1 Ref Frames
Format settings, CABAC : No
Format settings, Reference : 1 frame
Codec ID : avc1
Codec ID/Info : Advanced Video Coding
Duration : 2 h 3 min
Source duration : 2 h 3 min
Bit rate : 5 979 kb/s
Width : 1 920 pixels
Height : 1 080 pixels
Display aspect ratio : 16:9
Frame rate mode : Variable
Frame rate : 29.970 (29970/1000) FPS
Minimum frame rate : 29.960 FPS
Maximum frame rate : 29.970 FPS
Color space : YUV
Chroma subsampling : 4:2:0
Bit depth : 8 bits
Scan type : Progressive
Bits/(Pixel*Frame) : 0.096
Stream size : 5.16 GiB (98%)
Source stream size : 5.16 GiB (98%)
Writing library : x264 core 164 r3081 19856cc
Encoding settings : cabac=0 / ref=1 / deblock=1:0:0 / analyse=0x1:0x111 / me=hex / subme=2 / psy=1 / psy_rd=1.00:0.00 / mixed_ref=0 / me_range=16 / chroma_me=1 / trellis=0 / 8x8dct=0 / cqm=0 / deadzone=21,11 / fast_pskip=1 / chroma_qp_offset=0 / threads=12 / lookahead_threads=4 / sliced_threads=0 / nr=0 / decimate=1 / interlaced=0 / bluray_compat=0 / constrained_intra=0 / bframes=0 / weightp=0 / keyint=250 / keyint_min=25 / scenecut=40 / intra_refresh=0 / rc_lookahead=10 / rc=abr / mbtree=1 / bitrate=6000 / ratetol=1.0 / qcomp=0.60 / qpmin=0 / qpmax=69 / qpstep=4 / ip_ratio=1.40 / aq=1:1.00
Codec configuration box : avcC

Audio
ID : 2
Format : AAC LC
Format/Info : Advanced Audio Codec Low Complexity
Codec ID : mp4a-40-2
Duration : 2 h 3 min
Bit rate mode : Constant
Bit rate : 128 kb/s
Channel(s) : 2 channels
Channel layout : L R
Sampling rate : 44.1 kHz
Frame rate : 43.066 FPS (1024 SPF)
Compression mode : Lossy
Stream size : 113 MiB (2%)
Default : Yes
Alternate group : 1
Скриншот №1 для Yayoi Mizuki - Married Personal Trainer Reverse NTR Mizuki Yayoi Who Seduces Me With A Nice Ass And A Devilish Smile [JUQ-029] (Madonna) [cen] [2022 г., Solowork, Big Tits, Married Woman, Mature Woman, HDRip] [1080p] Скриншот №2 для Yayoi Mizuki - Married Personal Trainer Reverse NTR Mizuki Yayoi Who Seduces Me With A Nice Ass And A Devilish Smile [JUQ-029] (Madonna) [cen] [2022 г., Solowork, Big Tits, Married Woman, Mature Woman, HDRip] [1080p] Скриншот №3 для Yayoi Mizuki - Married Personal Trainer Reverse NTR Mizuki Yayoi Who Seduces Me With A Nice Ass And A Devilish Smile [JUQ-029] (Madonna) [cen] [2022 г., Solowork, Big Tits, Married Woman, Mature Woman, HDRip] [1080p] Скриншот №4 для Yayoi Mizuki - Married Personal Trainer Reverse NTR Mizuki Yayoi Who Seduces Me With A Nice Ass And A Devilish Smile [JUQ-029] (Madonna) [cen] [2022 г., Solowork, Big Tits, Married Woman, Mature Woman, HDRip] [1080p] Скриншот №5 для Yayoi Mizuki - Married Personal Trainer Reverse NTR Mizuki Yayoi Who Seduces Me With A Nice Ass And A Devilish Smile [JUQ-029] (Madonna) [cen] [2022 г., Solowork, Big Tits, Married Woman, Mature Woman, HDRip] [1080p]
.
📅 3-08-2022, 12:15 ☺ SEED / PEER - (25/12) ⚖ 5.28 GB 👁
.